‘尛傑’ (肥旺…)
音乐掌门人
Rank: 14Rank: 14Rank: 14Rank: 14
独家资源


至爱音乐荣誉勋章   至爱音乐版主  
UID 59570
精华 11
积分 2391671992
帖子 2077
音乐魅力 244186257 点
现金 2147483647 音乐币
阅读权限 180
注册 2006-8-28
状态 在线
发表于 2018-9-12 03:25  资料  个人空间  短消息  加为好友  QQ
[BD]S.H.E - 十七[MP4/158M]



QUOTE:



QUOTE:
下載地址:
https://pan.baidu.com/s/1VKCHWlbX8UF2yDCK1MqWvw


提取碼:
**** 本内容跟帖回复才可浏览 *****



QUOTE:
General
Format                         : MPEG-4
Format profile                 : Base Media
Codec ID                       : isom (isom/iso2/avc1/mp41)
File size                      : 158 MiB
Duration                       : 5 min 37 s
Overall bit rate               : 3 939 kb/s
Writing application            : Lavf58.10.100

Video
ID                             : 1
Format                         : AVC
Format/Info                    : Advanced Video Codec
Format profile                 : High@L4
Format settings, CABAC         : Yes
Format settings, ReFrames      : 2 frames
Codec ID                       : avc1
Codec ID/Info                  : Advanced Video Coding
Duration                       : 5 min 37 s
Bit rate                       : 3 806 kb/s
Width                          : 1 920 pixels
Height                         : 1 080 pixels
Display aspect ratio           : 16:9
Frame rate mode                : Constant
Frame rate                     : 24.000 FPS
Color space                    : YUV
Chroma subsampling             : 4:2:0
Bit depth                      : 8 bits
Scan type                      : Progressive
Bits/(Pixel*Frame)             : 0.076
Stream size                    : 153 MiB (97%)
Color range                    : Limited
Color primaries                : BT.709
Transfer characteristics       : BT.709
Matrix coefficients            : BT.709

Audio
ID                             : 2
Format                         : AAC
Format/Info                    : Advanced Audio Codec
Format profile                 : LC
Codec ID                       : 40
Duration                       : 5 min 37 s
Bit rate mode                  : Constant
Bit rate                       : 129 kb/s
Channel(s)                     : 2 channels
Channel positions              : Front: L R
Sampling rate                  : 44.1 kHz
Frame rate                     : 43.066 FPS (1024 spf)
Compression mode               : Lossy
Stream size                    : 5.17 MiB (3%)
Language                       : English
Default                        : Yes
Alternate group                : 1

[ 本帖最后由 ‘尛傑’ 于 2018-9-12 10:24 编辑 ]

分享到:     分享到新浪微博 新浪微博    分享到QQ空间QQ空间    分享到腾讯微博腾讯微博



至爱音乐论坛声明:
◎本站音乐仅供试听,请下载后在24小时内删除,请支持你喜欢的歌手,购买正版CD。
◎本站音乐皆从网上搜集转载,版权归唱片公司和歌手所有,如侵犯您的权益,请通知我们,我们将及时删除。





顶部
陶喆主义
荣誉音乐师
Rank: 10Rank: 10Rank: 10


荣誉勋章   至爱音乐荣誉勋章   至爱音乐荣誉会员  
UID 13500
精华 0
积分 8574
帖子 1629
音乐魅力 5520 点
现金 1425 音乐币
阅读权限 100
注册 2006-3-19
状态 离线
发表于 2018-9-12 09:18  资料  个人空间  短消息  加为好友 
谢谢分享!

顶部
格格紫
音乐门童




UID 149674
精华 0
积分 54
帖子 12
音乐魅力 32 点
现金 10 音乐币
阅读权限 5
注册 2016-9-1
状态 离线
发表于 2018-9-12 22:36  资料  个人空间  短消息  加为好友 
谢谢 喜欢这首关于成长的歌

顶部
cysky (從天堂到地獄 我路過了人間)
荣誉音乐师
Rank: 10Rank: 10Rank: 10


荣誉勋章   至爱音乐荣誉勋章   至爱音乐荣誉会员  
UID 8277
精华 0
积分 7173
帖子 1599
音乐魅力 5382 点
现金 192 音乐币
阅读权限 100
注册 2006-2-19
状态 离线
发表于 2018-9-12 23:17  资料  个人空间  短消息  加为好友 
感谢分享!





大悲无泪 大悟无言 大笑无声
顶部
bluelarry
音乐狂热份子
Rank: 4



UID 45410
精华 0
积分 3435
帖子 206
音乐魅力 2513 点
现金 716 音乐币
阅读权限 50
注册 2006-7-13
状态 在线
发表于 2018-9-18 16:32  资料  个人空间  短消息  加为好友 
谢谢 喜欢这首关于成长的歌

顶部
 



当前时区 GMT+8, 现在时间是 2018-9-20 12:51
本论坛支付平台由支付宝提供
携手打造安全诚信的交易社区
Processed in 0.020625 second(s), 9 queries , Gzip enabled

清除 Cookies - 联系我们 - 至爱音乐论坛 - Archiver - WAP